Mulan Ost Flac

Easy and quick download. Ke stažení ve formátu MP3 a FLAC. Beau Dermott : Defying Gravity (From Wicked) [00:04:03] 02. Original Soundtrack. Zooqle is one of the best torrent search sites that offers around 3 million community verified torrents from all sorts of fun categories like movies, music, games, and many others. New Game Entries: 1996 - Our Times Multimedia Encyclopedia of The 20th Century with Hybrid MAC/PC ISO, 1996 - Animal Planet Ultimate Wildlife Adventure with ISO, 1990 - Mammals: A Multimedia Encyclopedia with ISO, 1995 - North American Birds with Roger Tory Peterson with ISO, 1995 - ABC Wide World of Animals with ISO, these thanks to mklgw1985. Rotten To The Core ( Descendats ) 2. 42 download flac. 1 audio formats such as DTS-HD Master Audio, FLAC, or PCM (LPCM). Check out our list of the Essential Jerry Goldsmith Titles you must own. دانلود سینگل Christina Aguilera به اسم Loyal Brave True (From "Mulan") دموی 30 ثانیه ای آهنگ ها رو در آیتونز بشنوید Genres: Soundtrack. Disney's Frozen Deluxe Soundtrack (2013) (flac) Uploaded 01-23 2014, Size 602. The twists and turns of Hamilton’s complex story mirror the deft, sometimes tongue-twisting turns the performers take in their delivery. 1 kHz (Tracks) Artist: Lexie Title: 2029 Released: 2018 Style: Pop, Soul, RnB RAR Size: 239 Mb Tracklist: 01. The Soundtrack Of My Life Donny Osmond 2014. Add to My Collection. Honor To Us All - Beth Fowler/Marnie Nixon/Lee Salonga 2. Mangas, animes, dramas, films, jeux vidéos, séries TV. What's Wrong With Ping? - Mulan OST by Yahoosoundtracks. Mulan had a lot of this. Just Getting Started. PREVIEW Trashin' the Camp. Umělec Různí interpreti. Disney's Mulan (1998) (The Deluxe Edition) MP3+FLAC If this is your first visit, be sure to check out the FAQ by clicking the link above. Audio codec: FLAC+MP3. 50+ videos Play all Mix - Hua Mulan OST:Star YouTube; Beautiful Chinese Music - Tranquil Departure - Duration: 3:23. Watch Queue Queue. music belongs to the movie (2009) Disney RELAXING PIANO Collection -Sleep Music, Study Music, Calm Music (Piano Covered by kno) - Duration: 3:04:00. 2013-09-13T10:29:37Z Comment by nine tailed fox. Comments (0 Comments) Please login or create a FREE account to post comments. A Star is Born (Full) - Hercules Prev Next. The score was recorded at Air Lyndhurst Studio in London, and was performed by the London Symphony Orchestra conducted by James Shearman and produced by Maggie Rodford. Strange Things 06. Magical Disney Music for Ballet Classes Volume 2 (Double Length Album / Download Only) by Ray Lindsey / Chelsea Viste, released 09 September 2017 1. Bijo to Yajuu with …. Mulan (Soundtrack) by Various Artists Amazon. High quality Aladdin ( Mega Drive / Genesis) soundtrack in high resolution FLAC (Free Lossless Audio Codec). Check out Frozen 2 (Original Motion Picture Soundtrack/Deluxe Edition) by Various artists on Amazon Music. Omen III The Final Conflict [The Deluxe Edition] - Jerry Goldsmith [LOSSLESS FLAC] Night Crossing - Jerry Goldsmith (1982) [LOSSLESS FLAC] Mulan - Jerry Goldsmith (1998) [LOSSLESS FLAC]. Download Disney-Soundtrack Torrent at TorrentFunk. Sol En Si - Sol En Cirque download flac. Disney - Reflejo06. Donny Osmond may not ever qualify as a rocker, but he shows himself the perfect choice for the male vocal lead here, with his best effort since his brief turn in the spotlight as one of the. aac I guess the Pi 3 should be able to decode 1080p30 MPEG-2 or VC-1 in software, so codec licenses aren't really needed anymore?. Rotten To The Core ( Descendats ) 2. Various Artists - Woodstock Music From the Original Soundtrack and More (2009) [R2 518805, R2 518806] Various Artists - xXx State of the Union (2005) [JIV 67922] Various Artists - Youth In Revolt (2010) [LKS 340972]. Mulan [Original Disney Soundtrack]Born on Staten Island on December 18, 1980, Aguilera spent her early childhood in Rochester and Wexford, Pennsylvania, suburban towns just outside of Pittsburgh. Publicada hace 2 años. Total size 1. VV: Kill Bill Vol. Listen to music from Mulan Soundtrack like I'll Make a Man Out of You, A Girl Worth Fighting For & more. Immortals ( Big Hero 6 ) 5. The story line in this movie (King Arthur-2004) is false and injurious to true history and Catholic Faith, but this soundtrack is powerful and inspiring if one listens to it with the ear of the Catholic Faith. 0 % Test CRC 47095BA4 Copy CRC 47095BA4 Accurately ripped (confidence 10) [A8D06072] (AR v2) Copy OK Track 3. All are available as. 18] may 6, 2020 クアイフ (Qaijff) - 光福論 [FLAC / 24bit Lossless / WEB] [2019. 1 OST [FLAC TNT] Audio FLAC 3 days monova. TaiGekTou Recommended for you. Magical Disney Music for Ballet Classes Volume 2 (Double Length Album / Download Only) by Ray Lindsey / Chelsea Viste, released 09 September 2017 1. 45 GB Мулан / Mulan (1998) BDRip от HQCLUB 1. Movie: Mulan (1998) info with movie soundtracks, credited songs, film score albums, reviews, news, and more. Your Internet Provider is tracking your torrent activity! Hide your IP ADDRESS with a V. That's a testament to the. Watch and download free files flac, mp3, ogg and mp4. Mulan: An Original Walt Disney Records Soundtrack is the soundtrack for the 1998 Disney animated feature film, Mulan. Temat: Mulan - OST Mulan - OST 1. Jazz injection by Samuel Vallee, released 28 September 2016 1. Mulan Original Motion Picture Soundtrack: the ost, music, songs, score, cover, reviews, preview, online listen, tracks. Nakupujte jednotlivé skladby nebo celá alba interpreta Christina Aguilera, a to v digitálním formátu MP3, FLAC/Hi-Res (WAV) či ve fyzické podobě na CD i LP (vinyl). 1 audio formats such as DTS-HD Master Audio, FLAC, or PCM (LPCM). Mar 1-7 2012 http://7thfire. 文件:1996 Various - The Rock (Original Motion Picture Score)(162 062-2). 96 MB: 31: 1: 402: Greg Howe - Ascend (1999) [Flac Cue] [TNTvillage] 06. موسيقى فيلم ناصر 56 (OST) ياسر عبد الرحمن FLAC / 44100 Hz / 16 Bits: 1: 0: 233. 1 & 2 & Tragic Overture Brahms: Piano Concertos Nos. We have 75 Jerry-Goldsmith Music torrents for you!. Um dos grandes Clássicos da Disney, Mulan, tem uma trilha sonora com músicas inspiradoras e memoráveis. Ming-Na Wen and B. 98 7 Used from $4. Mulan (Soundtrack) by Various Artists Amazon. zip: 278 mb Tracklist: 01. Welcome to YesAsia. Chilling Like A Villain ( Descendants 2 ) 8. Magical Disney Music for Ballet Classes Volume 2 (Double Length Album / Download Only) by Ray Lindsey / Chelsea Viste, released 09 September 2017 1. 99 4 Used from $13. Plus OST, tu meurs !. Original 1984 Motion Picture Soundtrack composed and conducted by Jerry Goldsmith. Live concert recording of Lea Salonga's heart-stopping performance with the exceptional BYU Chamber Orchestra. We have 45 Disney-Soundtrack Music torrents for you!. Mulan OST - 13. Buy, preview and download over 30 million tracks in our store. Antarctica :: Antarctic Treaty System. However, even though you might be able to find literally any torrent file. 0 % Test CRC 05682A99 Copy CRC 05682A99 Track not present in AccurateRip database Copy OK Track 12. Demi Lovato - I Love Me05. r/CastRecordings: Cast Recordings for Musicals, Broadway, West End, Film, Off-Broadway, Tours, Concept Recordings, Regional Productions, Concerts …. 2 Released: 2018 Style: Soundtrack RAR Size: 133 Mb Tracklist: 01. Celia Vergara, Chorus, Marta Martorell, María Caneda, Paula Bas - Honra Nos Darás05. Disney Male by Kristal Gandhi,, released 23 June 2018 1. Nächstes Jahr soll die Wiese an der Babenhauser Straße, Ecke Splittenbrede, bebaut werden. Frozen Soundtrack. Performed by Louis Armstrong. How Far I'll Go (From Moana/Soundtrack Version) - Auli'i Cravalho 2. Conceal, don't feel, don't let them know. Download on Amazon - The Greatest Show. Mist Of Pandaria - Way Of The Monk - Erhu Cover 4. VV: Kill Bill Vol. Moana Original Motion Picture Soundtrack (Deluxe Edition) Available in Audiophile 96kHz/24bit Title: Moana Original Motion Picture Soundtrack (Deluxe Edition). 96 MB: 31: 1: 402: Greg Howe - Ascend (1999) [Flac Cue] [TNTvillage] 06. LOVE THIS SONG NICE REMIX. Your Internet Provider is tracking your torrent activity! Hide your IP ADDRESS with a V. Check out Frozen (Original Motion Picture Soundtrack) by Various artists on Amazon Music. Fantasy in the Sky was a fireworks performance at Disneyland from 1958 to 1996 (with short engagements in 2004 and early 2015), at the Magic Kingdom from 1971 until 2003, at Tokyo Disneyland in from 1983 until 1988 (with engagements from 1995 until 1997, and again from 2001 until 2003) and at Disneyland Paris from 1993 to 2005. Classic Disney: 60 Years of Musical Magic is a 5-volume compilation series, each containing 25 songs compiled from Disneyland and Walt Disney World, various Disney films in animation and live-action, and the Walt Disney anthology television series. Index last generated: 2020-05-04 09:56 -07:00. *Harap lapor jika ada link yang broken Jangan lupa komentarnya. Mulan: An Original Walt Disney Records Soundtrack is the soundtrack for the 1998 Disney animated feature film, Mulan. Các bạn có thể nghe, download (tải nhạc) bài hát papi mp3, playlist/album, MV/Video papi miễn phí tại NhacCuaTui. 1 & 2 & Tragic Overture Various Artists 2009 From £10. The highest quality of audio that you can download is flac. 28th Jan 2017 - Added lots of missing images. Puppy Love. Broadway Torrents: Torrentman. - Mulan – Voy a hacer todo un hombre de ti 60. Em chỉ có 1số ít ỏi thông tin về nó:. Obsahuje hity ♫ The Glow ♫ If You Can Dream. php): failed to open stream: No such file or directory in /home/content/64/10205264/html. Disneys Mulan Reflection Full Version mp3. i love the mulan films, u made a wikked cool remix , BELIEVE IT and nice job. BSO Frozen El Reino del Hielo (Español – Inglés) FLAC Calidad. Skip navigation Sign in. Chilling Like A Villain ( Descendants 2 ) 8. Mulan [Original Disney Soundtrack]Born on Staten Island on December 18, 1980, Aguilera spent her early childhood in Rochester and Wexford, Pennsylvania, suburban towns just outside of Pittsburgh. Quality: lossless+320 kbs. دانلود تک آهنگ Loyal Brave True از موسیقی متن Mulan از کریستینا آگیلرا (Christina Aguilera) کیفیت رایگان فلک FLAC 16 Bit البوم جدید 2020 از کریستینا آگیلرا. Visit Tunefind for music from your favorite TV shows and movies. Original 1984 Motion Picture Soundtrack composed and conducted by Jerry Goldsmith. Oct - 02 2012. Demikian Download Acha Septriasa - OST Heart (2006) | Full Album - Jangan lupa untuk selalu berkunjung di zonamusiksatura. Jerry Goldsmith / Mulan (Deluxe Edition) / 2 CD / FLAC / Complete / - HQCovers Set! If this is your first visit, be sure to check out the FAQ by clicking the link above. Ukázky zdarma k poslechu. Artists: 232270 Albums: 659197 Tracks: 7455444 Storage: 56990 GB Do stuff. 2006 Disneys Mulan Original Soundtrack inherited from his experience with jazz. Released on June 2, 1998, the album featured songs by Matthew Wilder and David Zippel, conducted by Paul Bogaev, and score composed and conducted by Jerry Goldsmith. Find the latest tracks, albums, and images from Mulan Soundtrack. May 3, 2020 ZeroZeroZero Soundtrack By Mogwai; May 3, 2020 Das Boot: Staffel 2 Soundtrack By Matthias Weber; May 3, 2020 Legends of the Fall Soundtrack Expanded By James Horner; May 3, 2020 Un detective Soundtrack By Fred Bongusto; May 3, 2020 Soy Luna Soundtrack; May 3, 2020 Highlander Soundtrack Complete By Michael Kamen, Queen; May 3, 2020 Salut Jerusalem Soundtrack By Vangelis. Sleep Away 04. Download Wong - Wong (1999) | Full Album - Pada kesempatan kali ini Saya akan berbagi "Mp3 Full Album " , silahkan langsung saja downlo. Download Jerry-Goldsmith Torrent at TorrentFunk. mid converted from midi to mp3 using the solmire. Direct download via magnet link. Chris Daughtry - Bring Me To Life (From "The Passion New Orleans" Television Soundtrack) 64. The Jacksons - Can You Feel It. 2 % Extraction speed 6. Meridian Explorer: USB Digital to Analog Converter, up to 192kHz/24-bit. How Far I'll Go (From Moana/Soundtrack Version) - Auli'i Cravalho 2. Preview The Soundtrack Of My Life (Deluxe) The Soundtrack. Pinky & Perky - Reet Petite download flac. 1 & Bootstrap. Plié 2/4 - Princess Leia's Theme (Star Wars) 12x8 5. 14 MB: Various Artists - Butterfly Lovers OST (2007) [FLAC] 345. Free download full zip, rar archives. Kingdom Hearts Original Soundtrack Complete is a video game compilation album that contains music from all the games in the Kingdom Hearts series prior to the release of Kingdom Hearts 358/2 Days, Kingdom Hearts Birth by Sleep, and Kingdom Hearts coded. Find the latest tracks, albums, and images from Mulan Soundtrack. Atlanta Monster (Original Podcast Soundtrack) Audio codec: MP3. Like if you play I Am Moana and listen to the part right where she says "rising", you can hear some sort of click right when she says it. wav Peak level 77. com all movie soundtracks. How Far I'll Go (From "Moana"/Soundtrack Version) - Auli'i Cravalho 02. Sings Disney Released: 2015 Genre: Pop, Ballad Bitrate: FLAC & MP3 320 KBPS RAR / 300 MB / 302 MB; RAR / 108 MB / 109 MB Tracklist: Disc 1 - Japanese Version 1. 8 X Track quality 100. 7 MB) Audio Create Time: File Size: 338. Lord Zedd y Rita Repulsa liberan a Ivan Ooze de la prisión en la que ha estado confinado seis mil años, apresado por Zordon. Other information: Total number of members who have this title in their: Collection: 610 Wish list: 83 There are 24 labels for this title. m4a5,810 KB07 Camel Race. Find the latest tracks, albums, and images from Mulan Soundtrack. OST-Mulan II-2005-EOS OST-Music From The Motion Picture Magnolia-1999-EOS OST-Music From Twin Peaks by Angelo Badalamenti-1990-soup int OST-My Blueberry Nights-Retail-2007-BFHMP3 OST-Natural Born Killers-1994-EOS OST-Nie Klam Kochanie-2CD-2008-BFHMP3 OST-Not Another Teen Movie-2001-EOS OST-Oceans Thirteen-2007-EOS. 1 OST - Various Artists Music 1 month magnetdl. Download lagu Flac Lagu Barat Mp3 gratis dalam format MP3 dan MP4. - Where stars are born 110528 with ??? ??. 98 Degrees, Stevie Wonder - True To Your Heart03. freedb is a free CD and music data base service to look up textual metadata about music, audio or data CDs. Mulan: An Original Walt Disney Records Soundtrack @320 MP3 Disney's Frozen Deluxe Soundtrack (2013) (flac) Uploaded 01-23 2014, Size 602. Mulan: An Original Walt Disney Records Soundtrack. Listen to trailer music, OST, original score, and the full list of popular songs in the film. Publicada hace 2 años. How Far I'll Go (From "Moana"/Soundtrack Version) - Auli'i Cravalho 02. 也许对您有用的百度网盘资源推荐. Ed Sheeran - Cross Me - Erhu Cover 6. Phil Collins - Strangers Like Me - Tarzan [2:59] 14. Franck Pourcel - Amour, Danse Et Violons No. Easy and quick download. Antarctica :: Antarctic Treaty System. Strange Things 06. Disneys Mulan Reflection Full Version mp3. It is not part of the end credits, unless there is a different version of the end credits of the movie, which i'm not aware. Wham! - Everything She Wants. Explore Prime Music. All are available as. Released by Walt Disney Records in 1998 (60631-7) containing music from Mulan (1998). 1 - Frozen Heart. Barnum then arrives on a elephant to watch his daughters' ballet. Tracklist: 1. Mulan (Soundtrack) by Various Artists Amazon. Umělec Různí interpreti. Download Synthesizers Torrent at TorrentFunk. Je voudrais (Extrait de Raiponce) 04. Leave A Reply. Lea Salonga - Reflection - Mulan [2:25] 12. Disney's Mulan (1998) (The Deluxe Edition) MP3+FLAC; If this is your first visit, This is an instrumental version of Reflection performed by Vanessa Mae, and appears in the 14 track version of the original soundtrack. Germany: Berlin. Microsoft Windows 98 Second Edition. Hi-Res 24 bit / Soundtrack / OST / Score 25-04-2020, 17:56 29 0 Music_land All albums Melody the Music Box Quality: FLAC 24 bit / 96 kHz (Tracks) Artist: Melody the Music Box. Hans Zimmer - Broken Arrow Price: $5. Kenny Loggins Yesterday, Today, Tomorrow The Greatest Hits Of Kenny Loggins (1997) FLAC LOSSLESS 16bit-44kHz Dynamic Range 7 Columbia Records CK 67986. , from The Pirate Bay than on any other torrent site. 1 kHz / 16 Bit Source: Digital download Album Artist: VA Album Name: Sing Your Heart Out Disney Release Date: 19-10-2018 Bitrate: 432-1007 kbps Duration: 03:42:57 ArtWork: not included Tracklist: 01. Moana Original Motion Picture Soundtrack (Deluxe Edition) Available in Audiophile 96kHz/24bit Title: Moana Original Motion Picture Soundtrack (Deluxe Edition). Brazil: Curitiba. Rich The Kid - Red10. Down in New Orleans (Finale) [From ''Disney's the Princess and the Frog''] - Anika Noni Rose This Compilation ℗ 2011 Walt Disney Records, Inc Released: 30 Sep 2011 Genre: Pop Quality: iTunes Plus AAC. 2 Released: 2018 Style: Soundtrack RAR Size: 133 Mb Tracklist: 01. 36 13 New from $7. Paramore - I Caught Myself (Twilight Soundtrack Version) 67. It follows the same formula that's informed every Disney soundtrack since The Lion King-- take two sweeping ballads and one up-tempo dance number, and surround them with reprises and re. 30 Day Money Back Guarantee!. Mar 1-7 2012 http://7thfire. Mulan is the best Disney soundtrack in recent memory, with melodies you can instantly sing along with and lyrics that are amusing and thought-provoking. Truth All Around. 1 Audio at 640 kpbs and. Dalam album kompilasi OST LASKAR PELANGI, lagu Tak Perlu Keliling Dunia ini merupakan lagu kelima. Apparently, very rare in France. City and County of Denver - Colorado | Charleston County - South Carolina | Dauphin County - Pennsylvania | Cass County - North Dakota. Circle of Life (From The. [Mulan OST] Reflection Đăng bởi: conangbenho_1998. Walt Disney requested a fireworks show against the backdrop of. biz/7thfire03072012. FLAC / LOSSLESS. Product Description. Various- Disney Parade - Mulan. 15 liked songs • 212. Omen III The Final Conflict [The Deluxe Edition] - Jerry Goldsmith [LOSSLESS FLAC] Night Crossing - Jerry Goldsmith (1982) [LOSSLESS FLAC] Mulan - Jerry Goldsmith (1998) [LOSSLESS FLAC]. Leslie French - Reflection (1:54) 5. Courtesy of The RCA Records Label. Download on Amazon - The Greatest Show. Beau Dermott : Tears In Heaven [00:03:32] 03. The Legacy Collection (mp3, 320) Posted by kat. Buy, preview and download over 19 million tracks in our store. 1 (2002) 01. Lights Indiefest Compilation. Easy and quick download. Mulan: An Original Walt Disney Records Soundtrack. The story line in this movie (King Arthur-2004) is false and injurious to true history and Catholic Faith, but this soundtrack is powerful and inspiring if one listens to it with the ear of the Catholic Faith. King Arthur ( 2004) Full Soundtrack. Moana Original Motion Picture Soundtrack (Deluxe Edition) Available in Audiophile 96kHz/24bit Title: Moana Original Motion Picture Soundtrack (Deluxe Edition). Omen III The Final Conflict [The Deluxe Edition] – Jerry Goldsmith [LOSSLESS FLAC] Night Crossing – Jerry Goldsmith (1982) [LOSSLESS FLAC] Mulan – Jerry Goldsmith (1998) [LOSSLESS FLAC]. Other information: Total number of members who have this title in their: Collection: 610 Wish list: 83 There are 24 labels for this title. With Kristen Bell, Idina Menzel, Josh Gad, Jonathan Groff. Reflection - Lea Solanga 3. Sarah McLachlan - When She Loved Me - Toy Story 2 [3:03] 15. Phil Collins. Beau Dermott : Defying Gravity (From Wicked) [00:04:03] 02. a lot of narrative-based show tunes used to advance the plot - but it has a rather large advantage in the form of some truly memorable standalone tracks that rank among the best individual Disney songs of all-time. 1 kHz (Tracks) Artist: Various Artists Title: Disney Classics Released: 2013 Style: Pop, Soundtrack RAR Size: 1. Thể loại: Lossless 0MB • flac • VIP; Bài hát này không tải được vì lý do bản quyền. Search for and download any torrent from the pirate bay using search query disney soundtrack. A Bad Moms Christmas. Label: Walt Disney Records ‎- CDD 010 Type: CD, Minimax, EP Country: Italy Date of released: 1999. Disc 1 (background music): 1 Main Title (1:33) Ulpio Minucci 2 Macross City (1:32) Ulpio Minucci 3 The Mysterious Ship (1:25) Ulpio Minucci & Arlon Ober. Atlanta Monster (Original Podcast Soundtrack) Audio codec: MP3. Disney's Frozen OST Deluxe Ed. 1 OST [FLAC TNT] Audio FLAC 3 days monova. Bijo to Yajuu with …. Our vision is to spread the joy of playing the piano to every corner of the globe. Preview, buy and download high-quality music downloads of Disney Ultimate Buddy Collection by Various Artists from 7digital United Kingdom - We have over 30 million high quality tracks in our store. Omladinska zadruga Bulevar saradjuje sa preko 600 poslodavaca i dnevno rasporedjuje poslove svojim zadrugarima. The best thing about this CD is that you get so many tracks. 사랑의 불시착 OST Part 6 (爱的迫降 OST Part 6) 04:32: Slowly Fall: 夏贤尚 (하현상) 반의반 OST Part 1: 04:01: 一心一念: 欧阳娜娜: 北灵少年志之大主宰 电视剧影视原声带·心境篇: 03:18: Lonely Night: 权珍雅: 슬기로운 의사생활 OST Part 1: 04:02: 그냥 나를 버려요: 何东均 (하동균. Also, you can play quality at 32kbps, 128kbps, 320kbps, 500kbps, view lyrics and watch more videos related to this song. 4 % Extraction speed 1. BSO Frozen El Reino del Hielo (Español – Inglés) FLAC Calidad. Read reviews, listen to samples, and buy tracks or albums from your favorite artists. دانلود آلبوم موسیقی متن و اهنگ های انیمیشن فروزن 2 (Frozen 2) با کیفیت اورجینال بالای فلک FLAC دانلود رایگان آهنگ های کارتون جدید منجمد Soundtrack 2019. our partners use cookies to personalize your experience, to show you ads based on your interests, and for measurement and analytics purposes. FLAC 16 bit / Pop / Soundtrack / OST / Score 15-11-2018, 16:09 664 0 soundmaster All albums Various Quality: FLAC 16 bit / 44. Bande son de Mulan 2, la mission de l'empereur Here is the official CD of the soundtrack of the Englsih version of the sequel film. When you see Wes Anderson's Isle of Dogs, which opened in a limited run and will go wide this weekend, you will undoubtedly be bowled over by the sheer imagination and technical chops on display. his page contains a complete listing of each and every track included in the Disneyland Magical Audio Tour collection. May 2, 2020 My Brilliant Friend: Season 2 Soundtrack By Max Richter; May 2, 2020 Streets of Rage 4 Soundtrack; May 2, 2020 Katy Keene Special Episode - Kiss of the Spider Woman the Musical Soundtrack; May 2, 2020 Le saut de l'ange / Les anges Soundtrack By François de Roubaix; May 2, 2020 The Sherman Brothers Songbook Soundtrack; May 2, 2020 Dragonball Z & Z2 Soundtrack By Kenji Yamamoto. Sous l'océan (Extrait de La petite sirène) 02. 1 kHz (Tracks). Mulan Soundtrack. 文件:1996 Various - The Rock (Original Motion Picture Score)(162 062-2). Car forum lamborghini bmw mercedes s2000 land c6 Custom Search. Title: Captain Marvel. wav Peak level 77. Anna, Elsa, Kristoff, Olaf and Sven leave Arendelle to travel to an ancient, autumn-bound forest of an enchanted land. Mulan: An Original Walt Disney Records Soundtrack is the soundtrack for the 1998 Disney animated feature film, Mulan. Find all 24 songs in The Mule Soundtrack, with scene descriptions. The story line in this movie (King Arthur-2004) is false and injurious to true history and Catholic Faith, but this soundtrack is powerful and inspiring if one listens to it with the ear of the Catholic Faith. mp3 CRC32 hash (test run) : AE1D7C96 CRC32 hash : AE1D7C96 CRC32 hash (skip zero) : AAD2DABC. Fate/Grand Order: Zettai Majuu Sensen Babylonia [OST] [320K/FLAC] Fate/Grand Order -絶対魔獣戦線バビロニア-. Download Jerry-Goldsmith Torrent at TorrentFunk. Courtesy of The RCA Records Label. Add to My Collection. Advanced Audio Coding. Na ekrany naszych kin trafił kolejny animowany film z wytwórni Walta Disneya. Disney film live action Mulan Dalam film action cina kali ini actor Cina-Amerika, bernam Liu Yifei, berperan sebagai Mulan. Hua Mulan Original Motion Picture Soundtrack: the ost, music, songs, score, cover, reviews, preview, online listen, tracks. Disney's Frozen OST. Click Here to buy Anastasia tickets today!. Soundtracks A to B. Find the latest tracks, albums, and images from Mulan Soundtrack. History of Exotic Cars: 10 fast facts about Maserati plus classic racing. The Pasadenas - Tribute. Mulan: An Original Walt Disney Records Soundtrack is the soundtrack for the 1998 Disney animated feature film, Mulan. Easy and quick download. Released by Walt Disney Records on June 2, 1998, the album featured songs by Matthew Wilder and David Zippel, conducted by Paul Bogaev, and score composed and conducted by Jerry Goldsmith. The Jacksons - Can You Feel It. Watch and download free files flac, mp3, ogg and mp4. Download Disney-Soundtrack Torrent at TorrentFunk. [Mulan OST] Reflection Đăng bởi: conangbenho_1998. Truth All Around. Preview Minimúsica, Vol. Directed by Chris Buck, Jennifer Lee. Direct download via magnet link. Intentions08. The songs on the soundtrack were composed by Phil Collins, and the instrumental score by Mark Mancina. Mulan soundtrack Jennifer Daniel; 13 videos; 1,181,334 views; Last updated on Jun 30, 2014; Play all Share. OST Center, le réflexe des fans de bandes originales. 12 GB: موسيقى مسلسل أم كلثوم (OST) عمار الشريعي FLAC / 44100 Hz / 16 Bits: 2: 0: 144. The soundtrack itself peaked at No. rip in Music. N! We strongly recommend using VPN to anonymize your torrenting. Watch Queue Queue. 1 OST [FLAC TNT] Audio FLAC 3 days monova. kno Piano Music Recommended for you. 2 % Extraction speed 6. A Bad Moms Christmas. Just Around The Riverbend ( Pocahontas ) 9. Harvey Fierstein, James Hong, Lea Salonga, Jerry Tondo, Matthew Wild. 98 7 Used from $4. The ultimate collection of the best of Disney, available here on vinyl. 0 % Test CRC 47095BA4 Copy CRC 47095BA4 Accurately ripped (confidence 10) [A8D06072] (AR v2) Copy OK Track 3. Listen to and download the music, ost, score, list of songs and trailers. Vanessa Mae - Reflection04. 19 MB, 1997 Kitaro ‎- The Soong Sisters宋家王朝(Original Motion Picture Soundtrack). His first album, The Jazz Soul of Little Stevie, was released in 1962 when he was 12 years old, and his most recent, A Time to Love, was released in 2005. High quality Christina Aguilera MP3 downloads from zdigital Australia. موسيقى مسلسل دموع في عيون وقحة (OST) عمار الشريعي FLAC / 44100 Hz / 16 Bits: 1: 0: 113. Wrath Of The Lich King - Sholazar Basin Theme - Erhu Cover 3. It is a total of nine discs and 229 tracks including previously unreleased tracks. Discover more music, concerts, videos, and pictures with the largest catalogue online at Last. PREVIEW Trashin' the Camp. The Soundtrack Of My Life Donny Osmond 2014. Watch Me 05. mp3 CRC32 hash (test run) : AE1D7C96 CRC32 hash : AE1D7C96 CRC32 hash (skip zero) : AAD2DABC. bt天堂,提供最新最全最好看的电影下载,720p、1080p、蓝光电影一应俱全. Christina Aguilera - Loyal Brave True (From "Mulan"/Official Lyric Video). Let the storm rage on. 1 MB: 0: 0: unknown: Disney's Frozen Deluxe Soundtrack (2013) (flac) 2 May: 602. Bei uns ist alles online, von den neusten Charts und Alben bis zu alten Musik-Klassikern. Slow (Mandarin) 08. Watch and download free files flac, mp3, ogg and mp4. Tytułowa Mulan mieszka wraz z najbliższymi w małej wiosce, gdzieś w Chinach. Franck Pourcel - Amour, Danse Et Violons No. Check out Mulan (Soundtrack) by Various on Amazon Music. The Jacksons - Can You Feel It. Sarah Geronimo – ‘Kiss Me, Kiss Me’ (Miss Granny OST) Posted on July 3, 2018 by Admin // 2 Comments Viva Records has released the official music video for “Kiss Me, Kiss Me” which is part of the soundtrack of the upcoming movie “Miss Granny” starring Sarah Geronimo. Laskar Pelangi dari Negaraya Store rayabilly - Jakarta Selatan hanya di Bukalapak. The Greatest Showman. Colors Of The Wind ( Pocahontas ) 4. Listen free to Various Artists - Mulan Original Soundtrack (True To Your Heart, Reflection and more). m4a8,431 KB06 The Caravan. Vanessa-Mae - Discography 1995-2004 (11 CD) FLAC FLAC 16 bit / Downtempo / Ambient/ New Age / Instrumental / Electronic / Club / Discography 15-07-2017, 11:25 2 364 0 musiclover All albums Vanessa-Mae. Released by Walt Disney Records on June 2, 1998, the album featured songs by Matthew Wilder and David Zippel, conducted by Paul Bogaev, and score composed and conducted by Jerry Goldsmith. Flac音乐下载(Flac music downloads)flac格式的音乐为无损压缩,对于初级无损音乐发烧友来说FLAC无疑是最佳选择。海量Flac音乐下载,flac格式无损音乐兼容性超强,Flac音乐资源免费打包下载网站。. Disney's Frozen OST Deluxe Ed. 50+ videos Play all Mix - Hua Mulan OST:Last Farwell YouTube; Hua Mulan OST: Passion of Mulan - Duration: 4:38. Easy and quick download. Sign in to like videos, comment, and subscribe. Download Synthesizers Torrent at TorrentFunk. 6 - Reindeer(s) Are Better Than People. Ukázky zdarma!. Puppy Love. Let It Go ( Frozen ) 7. Descargar OST de [Tarzan] Nuevos estrenos. Stream ad-free or purchase CD's and MP3s now on Amazon. On official website, you can also download some bonuses: liner notes of the sound track (so far Japanese only, but english will be eventually available), a jacket image and a CD label image for printing that are for the people who enjoy themselves to burn it. High quality Christina Aguilera MP3 downloads from zdigital Australia. Colors Of The Wind ( Pocahontas ) 4. 8 X Track quality 100. 11/27/2019: 623 MB: 0: 0: Lukas Graham - 7 Years (Free MP3 Download)__AAC. The Time of Your Life (A Bug's Life) 13. Game Of Thrones Final Season OST - Violin & Erhu Epic Cover 7. Mulan: An Original Walt Disney Records Soundtrack is the soundtrack for the 1998 Disney animated feature film, Mulan. mp3 CRC32 hash (test run) : AE1D7C96 CRC32 hash : AE1D7C96 CRC32 hash (skip zero) : AAD2DABC. 7 MB: 0: 0: unknown. By using our website and our services, you agree to our use of cooki. 50+ videos Play all Mix - Hua Mulan OST:Last Farwell YouTube; Hua Mulan OST: Passion of Mulan - Duration: 4:38. The World of Disney in One App. download a verified bittorrent for free. Disney Male by Kristal Gandhi,, released 23 June 2018 1. Jerry Goldsmith / Mulan (Deluxe Edition) / 2 CD / FLAC / Complete / - HQCovers Set! If this is your first visit, be sure to check out the FAQ by clicking the link above. Christina Aguilera - Loyal Brave True (From Mulan)03. Broadway Torrents: Torrentman. Discover more music, concerts, videos, and pictures with the largest catalogue online at Last. Quality: FLAC 16 bit / 44. Descubra todo lo que Scribd tiene para ofrecer, incluyendo libros y audiolibros de importantes editoriales. Film yang disutradarai oleh Niki Caro ini akan dijadwalkan tayang bulan maret tanggal 27 tahun 2020 mendatang. A current list of Jerry Goldsmith soundtrack albums for you to browse. Mulan is the best Disney soundtrack in recent memory, with melodies you can instantly sing along with and lyrics that are amusing and thought-provoking. All the songs are ordered like in the Mulan movie and the voices from the movie are also on the song track which I enjoy because that's how I remember them from the movie. IBit - Verified Torrent Search Engine. I'll Make a Man Out of You - From "Mulan"/Soundtrack, a song by Donny Osmond, Chorus - Mulan on Spotify We and our partners use cookies to personalize your experience, to show you ads based on your interests, and for measurement and analytics purposes. Skip to the main content Skip to footer Skip to the main content Back to the top. Sarah Geronimo – ‘Kiss Me, Kiss Me’ (Miss Granny OST) Posted on July 3, 2018 by Admin // 2 Comments Viva Records has released the official music video for “Kiss Me, Kiss Me” which is part of the soundtrack of the upcoming movie “Miss Granny” starring Sarah Geronimo. Temat: Mulan - OST Mulan - OST 1. Jerry Goldsmith / Mulan (Deluxe Edition) / 2 CD / FLAC / Complete / - HQCovers Set! If this is your first visit, be sure to check out the FAQ by clicking the link above. Beth Fowler, Marnie Nixon, Lea Salonga, Chorus - Honor To Us All (03:03)02. Genre: Score Date: 2015 (1998) Country: USA Audio codec: MP3 Quality: 320. Anna, Elsa, Kristoff, Olaf and Sven leave Arendelle to travel to an ancient, autumn-bound forest of an enchanted land. It is not part of the end credits, unless there is a different version of the end credits of the movie, which i'm not aware. A Bad Moms Christmas. 2013-09-13T10:29:37Z Comment by nine tailed fox. Let it go, let it go. Disney - Reflejo06. City and County of Denver - Colorado | Charleston County - South Carolina | Dauphin County - Pennsylvania | Cass County - North Dakota. - Where stars are born 110528 with ??? ??. موسیقی متن (Soundtrack) دانلود مجموعه آثار، آلبوم و اهنگ های موسیقی متن (Soundtrack) برترین و بهترین آهنگ های جدید موسیقی متن (Soundtrack) دانلود با کیفیت اورجینال FLAC (16bit) پخش آنلاین و استریم رایگان MP3 128K. @exerted: no prob anytime dude. Here at Allflac. 6 X Track quality 100. VV: Kill Bill Vol. The soundtrack for Cinderella features original music by Patrick Doyle ("Brave," "Thor") marking the eleventh time Doyle has teamed with director Kenneth Branagh. 1 OST [FLAC TNT] Music 1 hour ibit. White Christmas 3. Mulan: An Original Walt Disney Records Soundtrack is the soundtrack for the 1998 Disney animated feature film, Mulan. Sings Disney Released: 2015 Genre: Pop, Ballad Bitrate: FLAC & MP3 320 KBPS RAR / 300 MB / 302 MB; RAR / 108 MB / 109 MB Tracklist: Disc 1 - Japanese Version 1. The Pasadenas - Tribute. Mar 1-7 2012 http://7thfire. Welcome to YesAsia. Released by Walt Disney Records on June 2, 1998, the album featured songs by Matthew Wilder and David Zippel, conducted by Paul Bogaev, and score composed and conducted by Jerry Goldsmith. The song "You'll Be in My Heart" won both an Oscar and a Golden Globe for best original song. Chilling Like A Villain ( Descendants 2 ) 8. Quality: FLAC 24 bit / 44. High quality Christina Aguilera music downloads from 7digital Canada. Midnight Guitar. The Pirate Bay torrent website is the king of the torrent sites. Ευγένιος Σπαθάρης - Ο Καραγκιόζης Γιατρός download flac Various - Mulan download flac. Disney Male by Kristal Gandhi,, released 23 June 2018 1. *NSYNC - When You Wish Upon a star. See more ideas about Movies online, Streaming movies and Movies. 99 16-bit FLAC Preview Soundtrack Music Suite (From "The Spiral Road" Original Soundtrack). Tokyo Ghoul - Glassy Sky - Erhu Cover 5. دانلود آلبوم موسیقی متن و اهنگ های انیمیشن فروزن 2 (Frozen 2) با کیفیت اورجینال بالای فلک FLAC دانلود رایگان آهنگ های کارتون جدید منجمد Soundtrack 2019. With Kristen Bell, Idina Menzel, Josh Gad, Jonathan Groff. Jim Cummings and Nikita Hopkins - Whoop-de-Dooper Bounce - The Tigger Movie [2:09] 16. Paramore - I Caught Myself (Twilight Soundtrack Version) 67. Temukan lagu terbaru favoritmu hanya di lagu 123 stafaband planetlagu. Katy Perry - Never Worn White02. International shipping. Demi Lovato - I Love Me05. Mulan: An Original Walt Disney Records Soundtrack is the soundtrack for the 1998 Disney animated feature film, Mulan. - Pinocho – -La estrella. PREVIEW Trashin' the Camp. 33 MB: موسيقى أنمي قناص المدينة OST) FLAC / 44100 Hz / 16 Bits) 1. Melody the Music Box - Reflection (03:38) 02. The Greatest Showman. Swing joined: 10/27/08 Broadway Torrents #1 Posted: 10/27/08 at 10:34pm. A Star is Born (Full) - Hercules Prev Next. The highest quality of audio that you can download is flac. 0 % Test CRC 05682A99 Copy CRC 05682A99 Track not present in AccurateRip database Copy OK Track 12. 27th Jun 2017 - Updated jQuery to 3. Volume I was released on March 28, 1995, Volume II on September 12. Jerry Goldsmith - MacArthur (Music From The Motion Picture) flac mp3 album; Toto - Toto IV flac mp3 album; Jerry Goldsmith - King Solomon's Mines (Original Motion Picture Soundtrack) flac mp3 album; Matthew Wilder & David Zippel / Jerry Goldsmith - Disney's Mulan (An Original Walt Disney Records Soundtrack) flac mp3 album. Malu - Reflejo ( Dance Version )02. wav" WAVE TRACK 01 AUDIO TITLE "I'll Make A Man Out Of You (Mulan)" PERFORMER "Donny Osmond" INDEX 01 00:00:00 FILE "02. Free Lossless Audio Codec. Hi-Res 24 bit / Soundtrack / OST / Score 25-04-2020, 17:56 29 0 Music_land All albums Melody the Music Box Quality: FLAC 24 bit / 96 kHz (Tracks) Artist: Melody the Music Box. The Pirate Bay torrent website is the king of the torrent sites. Skip to the main content Skip to footer Skip to the main content Back to the top. Germany: Berlin. The Only Source Of 1337x YTS & YIFY 1337x TORRENT 1337x - Make Sure To download Viva the Underdogs (2020) Torrent Movie - Film 1337x Quality in HD / 1337x browse and download 1337x YIFY movies 1337x in excellent 1337x 4k 2160p 1337x, HD 1337x 1440p 1337x, HD 1337x 1080p, HD 720p 1337x, SD 480p, SD 1337x 360p, SD 240p quality Torrents - Viva the Underdogs (2020) Released On 2019 In Jan. April 25, 2020 Bad Education Soundtrack By Michael Abels; April 25, 2020 Homeless Ashes Soundtrack By Mark Wind; April 25, 2020 Music From Better Call Saul Seasons 1-5 Soundtrack; April 25, 2020 Cinematic Chillout: Relaxing Soundtrack Music; April 25, 2020 Greatest Western Themes Of All Time Soundtrack By Ennio Morricone; April 25, 2020 The Best of Bond…James Bond Soundtrack By John Barry. Brainfuck,是一種極小化的程式語言,它是由Urban Müller在1993年創造的。 由於fuck在英語中是髒話,這種語言有時被稱為Brainf*ck或Brainf***,或被簡稱為BF。. Randy Newman - The Time of Your Life - A Bug's Life [3:13] 13. There are 5 compilation albums for this title. 1 (2002) 01. Fantasy in the Sky was a fireworks performance at Disneyland from 1958 to 1996 (with short engagements in 2004 and early 2015), at the Magic Kingdom from 1971 until 2003, at Tokyo Disneyland in from 1983 until 1988 (with engagements from 1995 until 1997, and again from 2001 until 2003) and at Disneyland Paris from 1993 to 2005. It was released in Japan on March 28, 2007 by Toshiba-EMI. Watch Star Wars and the Story of Star Wars 7\" Reel to Reel Free Full Movies Online, Like 123Movies, Fmovies, Putlocker, Netflix or Direct Download Torrent Star Wars and the Story of Star Wars 7\" Reel to Reel via Magnet Link. Mulan: An Original Walt Disney Records Soundtrack is the soundtrack for the 1998 Disney animated feature film, Mulan. Mulan soundtrack Jennifer Daniel; 13 videos; 1,181,334 views; Last updated on Jun 30, 2014; Play all Share. Free Download REVIVES -Lia Sings beautiful anime songs- Album free download anime music ost opening ending full version gratis japanese music single album A Great Place to download anime music MP3 at 320kbps or even FLAC for free. his page contains a complete listing of each and every track included in the Disneyland Magical Audio Tour collection. Tarzan (Original Motion Picture Soundtrack) Various Artists Soundtrack • 1999 Preview SONG TIME Two Worlds. All 22 songs from the The Mule (2018) movie soundtrack, with scene descriptions. Anastacia Someday My Prince Will Come 02. Mulan (Soundtrack) by Various Artists Amazon. track by Mason Lieberman, Yoko Kanno, Shihori, Úyanga Bold, Raj Ramayya, Substantial, Mega Ran, Red Rapper. There are currently a total of 1836 tracks available for your listening enjoyment. 1 kHz (Tracks). 2013-09-06T19:09:15Z Download Short Hair (Mulan OST) Remix. Spotify is a digital music service that gives you access to millions of songs. Reflection (Mulan) 12. Bijo to Yajuu with …. 1 OST [FLAC TNT] Audio FLAC 3 days monova. 1 & 2 & Tragic Overture Brahms: Piano Concertos Nos. Brazil: Curitiba. موسیقی متن (Soundtrack) دانلود مجموعه آثار، آلبوم و اهنگ های موسیقی متن (Soundtrack) برترین و بهترین آهنگ های جدید موسیقی متن (Soundtrack) دانلود با کیفیت اورجینال FLAC (16bit) پخش آنلاین و استریم رایگان MP3 128K. Watch and download free files flac, mp3, ogg and mp4. hinahyuuga94 153,799 views. Jim Cummings and Nikita Hopkins - Whoop-de-Dooper Bounce - The Tigger Movie [2:09] 16. mkv in with Blu-ray quality video and lossless 5. The former star of Miss Saigon adds touching elements to the feature, especially on introspective numbers such as "Reflection. Let It Go ( Frozen ) 7. Like Other Girls (From ''Disney's Mulan II'') - Beth Blankenship, Judy Kuhn & Mandy Gonzalez 20. FLAC-DDR: Description: Captain Marvel OST 2019 WEB-DL 24Bit FLAC-DDR Hi-Res 24-bit – 96. Meridian Explorer: USB Digital to Analog Converter, up to 192kHz/24-bit. Released by Walt Disney Records in 1998 (60631-7) containing music from Mulan (1998). Be Our Guest (Beauty and the Beast) 03. 16-bit FLAC; Preview Baby Deli - Clásicos Para Soñar. REM GENRE Soundtrack REM DATE 1998 REM DISCID 5E103919 REM COMMENT "ExactAudioCopy v1. Easy and quick download. Сообщений: 116. Although rather new to the torrenting world, Zooqle has managed to make a name for itself. Find album reviews, stream songs, credits and award information for Mulan [Original Disney Soundtrack] - Jerry Goldsmith on AllMusic - 1998 - Music is an integral part to any animated Disney…. wav Peak level 77. If I Didn't Have You (Monsters, Inc. Listen to and download the music, ost, score, list of songs and trailers. Below is the entire list of movies that have 5. com you can download lossless music in popular formats FLAC, APE, ALAC, MP3, M4A. 2 🎁 How to Premium Download (Fast) Mulan- Honor to Us All Clip Songs. Title: Captain Marvel. 1 & 2 & Tragic Overture Various Artists 2009 From £10. 8 MB) 09 - Anika Noni Rose - Almost There - From The Princess and the Frog Soundtrack Version. 7 MiB, ULed by Anonymous: 2: 0: MY FIRST DISNEY Original Soundtrack Best Japanese Version. Sign in to like videos, comment, and subscribe. Obsahuje hity ♫ The Glow ♫ If You Can Dream. Note: Available at a lower price from other sellers that may not offer free Prime. 99 16-bit FLAC Preview Soundtrack Music Suite (From "The Spiral Road" Original Soundtrack). Preview, buy and download high-quality music downloads of Disney Ultimate Buddy Collection by Various Artists from 7digital United Kingdom - We have over 30 million high quality tracks in our store. PREVIEW Son of Man. Your Internet Provider is tracking your torrent activity! Hide your IP ADDRESS with a V. 09 Gb Tracklist: 1. Essa edição nacional, ai. Mulan is the best Disney soundtrack in recent memory, with melodies you can instantly sing along with and lyrics that are amusing and thought-provoking. I'll Make a Man Out of You - From "Mulan"/Soundtrack, a song by Donny Osmond, Chorus - Mulan on Spotify We and our partners use cookies to personalize your experience, to show you ads based on your interests, and for measurement and analytics purposes. - Peter Pan 66. Classic Disney: 60 Years of Musical Magic is a 5-volume compilation series, each containing 25 songs compiled from Disneyland and Walt Disney World, various Disney films in animation and live-action, and the Walt Disney anthology television series. Under the Sea (The Little Mermaid) 02. Wir bieten jedes Musikalbum und jedes Hörbuch kostenlos als Download an. Hi-Res 24 bit / Soundtrack / OST / Score 25-04-2020, 17:56 29 0 Music_land All albums Melody the Music Box Quality: FLAC 24 bit / 96 kHz (Tracks) Artist: Melody the Music Box. Beauty and the Beast - Let It Go 2. kno Piano Music Recommended for you. Deanna Carter, Aaliyah, Richard Marx, Donna Lewis, Jonathan Dokuchitz, Liz Callaway, Kelsey Grammer, Jim Cummings, Bernadette Peters, David Newman - Anastasia: Music From The Motion Picture (1997 Version) - Amazon. Kingdom Hearts Original Soundtrack Complete is a video game compilation album that contains music from all the games in the Kingdom Hearts series prior to the release of Kingdom Hearts 358/2 Days, Kingdom Hearts Birth by Sleep, and Kingdom Hearts coded. Akira Yamaoka - Silent Hill - 3 Special Mini Sound Track | 5 | 119Mb | 18:53 | FLAC | 882 L. The Legacy Collection (mp3, 320) Posted by kat. m4a8,506 KB02 The Sarcophagus. com all movie soundtracks. @exerted: no prob anytime dude. wav Peak level 77. Game Of Thrones Final Season OST - Violin & Erhu Epic Cover 7. Sign in to like videos, comment, and subscribe. Mulan: An Original Walt Disney Records Soundtrack is the soundtrack for the 1998 Disney animated film, Mulan. Sakai Noriko Complete DVD(7DVD)(D5) Price: $13. Various - The Wonderful Thing About Tiggers download FLAC. Listen to trailer music, OST, original score, and the full list of popular songs in the film. IBit - Verified Torrent Search Engine. By request game music/anime music and movie soundtracks - would be happy to post You on rapidshare (one link premium or non-premium) if You are searching for anything (the list below) - EVERYTING IN LOSSLESS (no rips made from mp3 to wav>flac/ape). How Far I'll Go ( Moana ) 3. Mulan: An Original Walt Disney Records Soundtrack is the soundtrack for the 1998 Disney animated film, Mulan. Nominada a dos Globos de Oro a la Mejor actriz y Mejor canción original y 3 Óscars musicales, fue la ganadora en las categorías de Mejor película, Mejor actriz y. Sie bedauert das: Bielefeld ist für uns zur zweiten Heimat geworden. 6 X Track quality 100. 6 MB: 0: 0: unknown: Toy Story 2 (An Original Walt Disney Records Soundtrack) Today: 259. Look Through My Eyes (Brother Bear Phil Collins) 19. Watch Prime Originals and live sports, exclusively on Prime Video. 83 MB, 1997 Francis Lai - Love Story (RR 02). Free Lossless Audio Codec. The Legacy Collection (mp3, 320) Posted by kat. Let It Go ( Frozen ) 7. Nidji - (2015) Supernova (Original Soundtrack) 01. - Peter Pan – Por Donde Tu Vayas 63. Good Girls 10. 1 kHz (Tracks) Artist: Various Artists. The songs on the soundtrack were composed by Phil Collins, and the instrumental score by Mark Mancina. June Foray - Mulan (18:41) Songs and Story: Mulan Soundtrack.